1349: FLV files not imported [#7326]

Beta Testing for Windows Products and plugins

Moderator: Gurus

MiPi
Posts: 580
Joined: Tue Aug 18, 2009 2:56 pm
Location: Czech Republic
Contact:

Re: 1349: FLV files not imported [#7326]

Post by MiPi » Sat May 21, 2011 11:51 pm

Reproduced here, issue 7694 reopened: http://www.ventismedia.com/mantis/view.php?id=7694

Edit: fixed in build 1379

KJIACC
Posts: 191
Joined: Sun Oct 11, 2009 5:40 am
Location: Магнитогорск. Россия
Contact:

Re: 1349: FLV files not imported [#7326]

Post by KJIACC » Fri May 27, 2011 9:56 pm

1379-1381. Another strange file:

Code: Select all

General
Complete name                    : F:\Фильмы\Документальные\Отдельные фильмы\Исследования\Крымские пирамиды\Крымские пирамиды.flv
Format                           : Flash Video
File size                        : 50.4 MiB
Duration                         : 24mn 3s
Overall bit rate                 : 293 Kbps

Video
Format                           : H.263
Codec ID                         : 2
Codec ID/Hint                    : Sorenson
Duration                         : 24mn 3s
Bit rate                         : 209 Kbps
Width                            : 306 pixels
Height                           : 240 pixels
Display aspect ratio             : 1.275
Frame rate mode                  : Constant
Frame rate                       : 15.000 fps
Bit depth                        : 8 bits
Compression mode                 : Lossy
Bits/(Pixel*Frame)               : 0.189
Stream size                      : 35.9 MiB (71%)

Audio
Format                           : MPEG Audio
Format version                   : Version 1
Format profile                   : Layer 3
Mode                             : Joint stereo
Mode extension                   : MS Stereo
Codec ID                         : 2
Codec ID/Hint                    : MP3
Duration                         : 24mn 3s
Bit rate mode                    : Constant
Bit rate                         : 64.0 Kbps
Channel(s)                       : 2 channels
Sampling rate                    : 44.1 KHz
Compression mode                 : Lossy
Stream size                      : 11.0 MiB (22%)
Link to file: Крымские пирамиды.flv - 50.43MB
Win7 x64 Intel Core i3 CPU 540 @ 3.07GHz 3.07 GHz 8 GB RAM NVIDIA GeForce GTS 450
4HD: (C:/D:/ - 1TB) (F:/ - 2TB) (G:/ - 2TB) (H:/ - 3TB)
Screen Resolution 1920x1080
MM runs as administrator.
I'm Tired to post messages using google-translator. I look forward to a forum for Russian-speaking users.

MiPi
Posts: 580
Joined: Tue Aug 18, 2009 2:56 pm
Location: Czech Republic
Contact:

Re: 1349: FLV files not imported [#7326]

Post by MiPi » Sun May 29, 2011 4:31 am

Hmm, reproduced, thanks. Issue reopened.

Edit: fixed in build 1381. The file has non-standard format. MM can handle it from this build.

stan9980
Posts: 101
Joined: Tue Nov 06, 2007 6:28 am

Re: 1349: FLV files not imported [#7326]

Post by stan9980 » Wed Sep 07, 2011 6:05 pm

I've just noticed that I'm having problem with a number of .flv files not showing up in my library. I'm using build 1426 with the most recent codec pack (2.0.0.14).

They play perfectly in MM4, but are not added to the library and tags don't work with them. They also aren't shown as failing to import after a rescan.

I've uploaded one problem file here...

http://www.megaupload.com/?d=AITVCKGT

I have quite a few more if needed.

MediaInfo Report

Code: Select all

General
Complete name                    : V:\[Podcasts]\C\CarPool\CarPool - 2009 - 009 - Jo Brand.flv
Format                           : Flash Video
File size                        : 66.0 MiB
Duration                         : 18mn 7s
Overall bit rate                 : 509 Kbps
Encoded date                     : unknown
Tagged date                      : UTC 2009-03-19 13:17:29
Tagging application              : Manitu Group FLV MetaData Injector 2

Video
Format                           : VP6
Codec ID                         : 4
Duration                         : 18mn 7s
Bit rate                         : 400 Kbps
Width                            : 480 pixels
Height                           : 270 pixels
Display aspect ratio             : 16:9
Frame rate mode                  : Constant
Frame rate                       : 15.000 fps
Bit depth                        : 8 bits
Bits/(Pixel*Frame)               : 0.206
Stream size                      : 55.0 MiB (83%)

Audio
Format                           : MPEG Audio
Format version                   : Version 1
Format profile                   : Layer 3
Mode                             : Joint stereo
Mode extension                   : Intensity Stereo + MS Stereo
Codec ID                         : 2
Codec ID/Hint                    : MP3
Duration                         : 18mn 7s
Bit rate mode                    : Constant
Bit rate                         : 80.0 Kbps
Channel(s)                       : 2 channels
Sampling rate                    : 44.1 KHz
Compression mode                 : Lossy
Stream size                      : 11.0 MiB (17%)
If you need anything else just ask.

Cheers,

stan9980

MiPi
Posts: 580
Joined: Tue Aug 18, 2009 2:56 pm
Location: Czech Republic
Contact:

Re: 1349: FLV files not imported [#7326]

Post by MiPi » Thu Sep 08, 2011 1:04 am

stan9980 wrote:I've just noticed that I'm having problem with a number of .flv files not showing up in my library. I'm using build 1426 with the most recent codec pack (2.0.0.14).

They play perfectly in MM4, but are not added to the library and tags don't work with them. They also aren't shown as failing to import after a rescan.

I've uploaded one problem file here...
I cannot reproduce it. For me, this file is scanned ok and added to my library. Do you have FLV extension enabled in rescan dialog - File Types? If so, please make debuglog of scanning folder with this one file. Thanks.
Note, MM4 cannot tag FLV files yet.

stan9980
Posts: 101
Joined: Tue Nov 06, 2007 6:28 am

Re: 1349: FLV files not imported [#7326]

Post by stan9980 » Thu Sep 08, 2011 4:15 am

Hmm, seems to be a problem with the collection I have set up. They are added to my library but aren't shown under the collection where I was expecting, with the other files in the same folders.

I'll have a closer look and do a debug log over the weekend.

Thanks

stan9980

stan9980
Posts: 101
Joined: Tue Nov 06, 2007 6:28 am

Re: 1349: FLV files not imported [#7326]

Post by stan9980 » Sat Sep 10, 2011 2:03 pm

Ok problem solved, the collection was video podcasts, so .flv weren't showing as they can't be tagged. Everything works fine with a video collection.

Cheers,

stan9980

Post Reply