1349: FLV files not imported [#7326]

Beta Testing for Windows Products and plugins

Moderator: Gurus

stan9980
Posts: 101
Joined: Tue Nov 06, 2007 6:28 am

1349: FLV files not imported [#7326]

Post by stan9980 » Thu Dec 30, 2010 6:49 am

I have a folder of video podcast episodes, some of which don't show up in my library. I've tried rescanning the folder but the information message box that comes up afterwards says they don't meet import criteria and so they are skipped. The files play in MM4 and I can see the files in the My Computer node with correct times and bitrates. I can edit the tags but the changes don't stick (even with a Ctrl+S thrown in for good measure) when I move away from the My Computer node.

Other flv files play ok and show up in my library. I'm using MM4 1342 + Codec 1.06.

Any ideas?

stan9980

rusty
Posts: 7215
Joined: Tue Apr 29, 2003 3:39 am
Location: Montreal, Canada

Re: Certain flv files not imported

Post by rusty » Mon Feb 07, 2011 4:59 pm

Hi Stan,

Please let me know if this is still the case with the most recent build. If yes, please post a link to a sample flv that plays correctly, but doesn't scan.

Thanks.

-Rusty

stan9980
Posts: 101
Joined: Tue Nov 06, 2007 6:28 am

Re: Certain flv files not imported

Post by stan9980 » Mon Feb 07, 2011 5:42 pm

Hi Rusty,

Everything works as expected. It was my mistake with an earlier build that would play .flv files but not keep them in the library. I forgot to edit my post.

Cheers,

Stan

Friedrich
Posts: 121
Joined: Sat Mar 01, 2008 3:14 am

Re: Certain flv files not imported

Post by Friedrich » Sun Feb 13, 2011 6:08 am

This one:
http://www.ventismedia.com/mantis/view.php?id=7103
seems to be back again with various types of streams: AVC/AAC; H263/MP3
Example: http://www.youtube.com/watch?v=1owGtskEiC4
OS: Win7 64bit, Manjaro Linux (XFCE),Linux Mint 18.3
Hardware: Intel Celeron G1610; Intel IGP; 8GB Ram; latest K-Lite Codec-Pack; Tracks: 41000 audio; 1900 video

Lowlander
Posts: 46184
Joined: Sat Sep 06, 2003 5:53 pm
Location: MediaMonkey 5

Re: Certain flv files not imported

Post by Lowlander » Sun Feb 13, 2011 12:17 pm

I don't think that's the right ticket, I think it's this one: http://www.ventismedia.com/mantis/view.php?id=7326 which isn't fixed.
Lowlander (MediaMonkey user since 2003)

Friedrich
Posts: 121
Joined: Sat Mar 01, 2008 3:14 am

Re: Certain flv files not imported

Post by Friedrich » Wed Feb 16, 2011 9:38 am

Lowlander wrote:I don't think that's the right ticket, I think it's this one: http://www.ventismedia.com/mantis/view.php?id=7326 which isn't fixed.
1349 seems not to recognize any flv at all (0 out of 109 here). Kind of regression?
OS: Win7 64bit, Manjaro Linux (XFCE),Linux Mint 18.3
Hardware: Intel Celeron G1610; Intel IGP; 8GB Ram; latest K-Lite Codec-Pack; Tracks: 41000 audio; 1900 video

stan9980
Posts: 101
Joined: Tue Nov 06, 2007 6:28 am

Re: Certain flv files not imported

Post by stan9980 » Wed Feb 16, 2011 10:05 am

Confirmed. I can't import new flv files in 1349, although they do play. Flv files I had previously added to my library pre-1349 are still there and can be tagged as expected.

Friedrich
Posts: 121
Joined: Sat Mar 01, 2008 3:14 am

Re: Certain flv files not imported

Post by Friedrich » Wed Feb 16, 2011 11:00 am

I made a fresh installation. When i try to tag them in the "My Computer" node, the tag values are not preserved.
OS: Win7 64bit, Manjaro Linux (XFCE),Linux Mint 18.3
Hardware: Intel Celeron G1610; Intel IGP; 8GB Ram; latest K-Lite Codec-Pack; Tracks: 41000 audio; 1900 video

stan9980
Posts: 101
Joined: Tue Nov 06, 2007 6:28 am

Re: Certain flv files not imported

Post by stan9980 » Wed Feb 16, 2011 11:24 am

Yes, same here, just to clarify...

It's only flv files that I had imported pre-1349 that I can tag and the tags are preserved.

New flv files won't import and if I try to tag them the tags aren't preserved.

Lowlander
Posts: 46184
Joined: Sat Sep 06, 2003 5:53 pm
Location: MediaMonkey 5

Re: Certain flv files not imported

Post by Lowlander » Wed Feb 16, 2011 12:22 pm

http://www.ventismedia.com/mantis/view.php?id=7326 doesn't show as fixed, so it would be expected that it isn't fixed.
Lowlander (MediaMonkey user since 2003)

Friedrich
Posts: 121
Joined: Sat Mar 01, 2008 3:14 am

Re: Certain flv files not imported

Post by Friedrich » Thu Feb 17, 2011 2:27 am

The bug description reads:
0007326: Some flv files aren't read correctly
But it seems that in fact none are read correctly with 1349. (Meanwhile it had been working with at least most flv files)
OS: Win7 64bit, Manjaro Linux (XFCE),Linux Mint 18.3
Hardware: Intel Celeron G1610; Intel IGP; 8GB Ram; latest K-Lite Codec-Pack; Tracks: 41000 audio; 1900 video

MiPi
Posts: 583
Joined: Tue Aug 18, 2009 2:56 pm
Location: Czech Republic
Contact:

Re: Certain flv files not imported

Post by MiPi » Thu Feb 17, 2011 2:42 am

Yes, FLV files are not importable now at all (the old way did not work well and was causing more problems), will be fixed in the mentioned issue 7326.

KJIACC
Posts: 191
Joined: Sun Oct 11, 2009 5:40 am
Location: Магнитогорск. Россия
Contact:

Re: 1349: FLV files not imported [#7326]

Post by KJIACC » Sun Mar 13, 2011 3:54 am

1353
MM end scanning:
Failed to import 1 files
Show errors:
Error scanning file ... Мартынов - Атака Параллельных Миров.flv - error while reading file info

But this file is played on all players

Code: Select all

General
Complete name                    : F:\Закачки\Фильмы\Документальные\Мартынов - Атака Параллельных Миров.flv
Format                           : Flash Video
File size                        : 16.3 MiB
Duration                         : 10mn 58s
Overall bit rate                 : 208 Kbps
Writing application              : YouTube, Inc.
Tagging application              : YouTube Metadata Injector.

Video
Format                           : H.263
Duration                         : 10mn 58s
Bit rate                         : 208 Kbps
Width                            : 320 pixels
Height                           : 240 pixels
Display aspect ratio             : 4:3
Frame rate mode                  : Constant
Frame rate                       : 15.000 fps
Bits/(Pixel*Frame)               : 0.180
Stream size                      : 16.3 MiB (100%)

Audio
Format                           : MPEG Audio
Format version                   : Version 2
Format profile                   : Layer 3
Duration                         : 10mn 58s
Bit rate mode                    : Variable
Channel(s)                       : 1 channel
Sampling rate                    : 22.05 KHz
Resolution                       : 16 bits

Link to file: http://www.sendspace.com/file/y2r6m8
Win7 x64 Intel Core i3 CPU 540 @ 3.07GHz 3.07 GHz 8 GB RAM NVIDIA GeForce GTS 450
4HD: (C:/D:/ - 1TB) (F:/ - 2TB) (G:/ - 2TB) (H:/ - 3TB)
Screen Resolution 1920x1080
MM runs as administrator.
I'm Tired to post messages using google-translator. I look forward to a forum for Russian-speaking users.

MiPi
Posts: 583
Joined: Tue Aug 18, 2009 2:56 pm
Location: Czech Republic
Contact:

Re: 1349: FLV files not imported [#7326]

Post by MiPi » Sun Mar 13, 2011 7:02 am

Thanks KJIAAC. This file does not exactly correspond to FLV format specification in one header value and MM assumes now, it has wrong format. Will be fixed in the next build (1354), I've permitted this variation.

KJIACC
Posts: 191
Joined: Sun Oct 11, 2009 5:40 am
Location: Магнитогорск. Россия
Contact:

Re: 1349: FLV files not imported [#7326]

Post by KJIACC » Sat May 21, 2011 10:07 pm

1377. MediaMonkey Codec Pack 1.11
MM end scanning:
Failed to import 1 files
Show errors:
Error scanning file ... Николай Воронов - Белая стрекоза любви.flv - error while reading file info
But this file is played on all players

Code: Select all

General
Complete name                    : F:\Закачки\Музыкальное видео\Николай Воронов - Белая стрекоза любви.flv
Format                           : Flash Video
File size                        : 8.98 MiB
Duration                         : 3mn 28s
Overall bit rate                 : 362 Kbps
Writing application              : В Кадре.ру
Tagging application              : Yet Another Metadata Injector for FLV - Version 1.2-OA-modified
title                            : Николай Воронов - белая стрекоза любви
author                           : Ванс vanseg Grind
created_at                       : 11 апреля 2008

Video
Format                           : H.263
Codec ID                         : 2
Codec ID/Hint                    : Sorenson
Duration                         : 3mn 28s
Bit rate                         : 257 Kbps
Width                            : 320 pixels
Height                           : 240 pixels
Display aspect ratio             : 4:3
Frame rate mode                  : Constant
Frame rate                       : 25.000 fps
Bit depth                        : 8 bits
Compression mode                 : Lossy
Bits/(Pixel*Frame)               : 0.134
Stream size                      : 6.59 MiB (73%)

Audio
Format                           : MPEG Audio
Format version                   : Version 2
Format profile                   : Layer 3
Mode                             : Joint stereo
Mode extension                   : MS Stereo
Codec ID                         : 2
Codec ID/Hint                    : MP3
Duration                         : 3mn 28s
Bit rate mode                    : Variable
Bit rate                         : 88.6 Kbps
Channel(s)                       : 2 channels
Sampling rate                    : 22.05 KHz
Compression mode                 : Lossy
Stream size                      : 2.34 MiB (26%)
Link to file: Николай Воронов - Белая стрекоза любви.flv - 8.98MB
Win7 x64 Intel Core i3 CPU 540 @ 3.07GHz 3.07 GHz 8 GB RAM NVIDIA GeForce GTS 450
4HD: (C:/D:/ - 1TB) (F:/ - 2TB) (G:/ - 2TB) (H:/ - 3TB)
Screen Resolution 1920x1080
MM runs as administrator.
I'm Tired to post messages using google-translator. I look forward to a forum for Russian-speaking users.

Post Reply