1349: FLV files not imported [#7326]

Post a reply


In an effort to prevent automatic submissions, we require that you complete the following challenge.
Smilies
:D :) :( :o :-? 8) :lol: :x :P :oops: :cry: :evil: :roll: :wink:

BBCode is ON
[img] is ON
[flash] is OFF
[url] is ON
Smilies are ON

Topic review
   

Expand view Topic review: 1349: FLV files not imported [#7326]

Re: 1349: FLV files not imported [#7326]

by stan9980 » Sat Sep 10, 2011 2:03 pm

Ok problem solved, the collection was video podcasts, so .flv weren't showing as they can't be tagged. Everything works fine with a video collection.

Cheers,

stan9980

Re: 1349: FLV files not imported [#7326]

by stan9980 » Thu Sep 08, 2011 4:15 am

Hmm, seems to be a problem with the collection I have set up. They are added to my library but aren't shown under the collection where I was expecting, with the other files in the same folders.

I'll have a closer look and do a debug log over the weekend.

Thanks

stan9980

Re: 1349: FLV files not imported [#7326]

by MiPi » Thu Sep 08, 2011 1:04 am

stan9980 wrote:I've just noticed that I'm having problem with a number of .flv files not showing up in my library. I'm using build 1426 with the most recent codec pack (2.0.0.14).

They play perfectly in MM4, but are not added to the library and tags don't work with them. They also aren't shown as failing to import after a rescan.

I've uploaded one problem file here...
I cannot reproduce it. For me, this file is scanned ok and added to my library. Do you have FLV extension enabled in rescan dialog - File Types? If so, please make debuglog of scanning folder with this one file. Thanks.
Note, MM4 cannot tag FLV files yet.

Re: 1349: FLV files not imported [#7326]

by stan9980 » Wed Sep 07, 2011 6:05 pm

I've just noticed that I'm having problem with a number of .flv files not showing up in my library. I'm using build 1426 with the most recent codec pack (2.0.0.14).

They play perfectly in MM4, but are not added to the library and tags don't work with them. They also aren't shown as failing to import after a rescan.

I've uploaded one problem file here...

http://www.megaupload.com/?d=AITVCKGT

I have quite a few more if needed.

MediaInfo Report

Code: Select all

General
Complete name                    : V:\[Podcasts]\C\CarPool\CarPool - 2009 - 009 - Jo Brand.flv
Format                           : Flash Video
File size                        : 66.0 MiB
Duration                         : 18mn 7s
Overall bit rate                 : 509 Kbps
Encoded date                     : unknown
Tagged date                      : UTC 2009-03-19 13:17:29
Tagging application              : Manitu Group FLV MetaData Injector 2

Video
Format                           : VP6
Codec ID                         : 4
Duration                         : 18mn 7s
Bit rate                         : 400 Kbps
Width                            : 480 pixels
Height                           : 270 pixels
Display aspect ratio             : 16:9
Frame rate mode                  : Constant
Frame rate                       : 15.000 fps
Bit depth                        : 8 bits
Bits/(Pixel*Frame)               : 0.206
Stream size                      : 55.0 MiB (83%)

Audio
Format                           : MPEG Audio
Format version                   : Version 1
Format profile                   : Layer 3
Mode                             : Joint stereo
Mode extension                   : Intensity Stereo + MS Stereo
Codec ID                         : 2
Codec ID/Hint                    : MP3
Duration                         : 18mn 7s
Bit rate mode                    : Constant
Bit rate                         : 80.0 Kbps
Channel(s)                       : 2 channels
Sampling rate                    : 44.1 KHz
Compression mode                 : Lossy
Stream size                      : 11.0 MiB (17%)
If you need anything else just ask.

Cheers,

stan9980

Re: 1349: FLV files not imported [#7326]

by MiPi » Sun May 29, 2011 4:31 am

Hmm, reproduced, thanks. Issue reopened.

Edit: fixed in build 1381. The file has non-standard format. MM can handle it from this build.

Re: 1349: FLV files not imported [#7326]

by KJIACC » Fri May 27, 2011 9:56 pm

1379-1381. Another strange file:

Code: Select all

General
Complete name                    : F:\Фильмы\Документальные\Отдельные фильмы\Исследования\Крымские пирамиды\Крымские пирамиды.flv
Format                           : Flash Video
File size                        : 50.4 MiB
Duration                         : 24mn 3s
Overall bit rate                 : 293 Kbps

Video
Format                           : H.263
Codec ID                         : 2
Codec ID/Hint                    : Sorenson
Duration                         : 24mn 3s
Bit rate                         : 209 Kbps
Width                            : 306 pixels
Height                           : 240 pixels
Display aspect ratio             : 1.275
Frame rate mode                  : Constant
Frame rate                       : 15.000 fps
Bit depth                        : 8 bits
Compression mode                 : Lossy
Bits/(Pixel*Frame)               : 0.189
Stream size                      : 35.9 MiB (71%)

Audio
Format                           : MPEG Audio
Format version                   : Version 1
Format profile                   : Layer 3
Mode                             : Joint stereo
Mode extension                   : MS Stereo
Codec ID                         : 2
Codec ID/Hint                    : MP3
Duration                         : 24mn 3s
Bit rate mode                    : Constant
Bit rate                         : 64.0 Kbps
Channel(s)                       : 2 channels
Sampling rate                    : 44.1 KHz
Compression mode                 : Lossy
Stream size                      : 11.0 MiB (22%)
Link to file: Крымские пирамиды.flv - 50.43MB

Re: 1349: FLV files not imported [#7326]

by MiPi » Sat May 21, 2011 11:51 pm

Reproduced here, issue 7694 reopened: http://www.ventismedia.com/mantis/view.php?id=7694

Edit: fixed in build 1379

Re: 1349: FLV files not imported [#7326]

by KJIACC » Sat May 21, 2011 10:07 pm

1377. MediaMonkey Codec Pack 1.11
MM end scanning:
Failed to import 1 files
Show errors:
Error scanning file ... Николай Воронов - Белая стрекоза любви.flv - error while reading file info
But this file is played on all players

Code: Select all

General
Complete name                    : F:\Закачки\Музыкальное видео\Николай Воронов - Белая стрекоза любви.flv
Format                           : Flash Video
File size                        : 8.98 MiB
Duration                         : 3mn 28s
Overall bit rate                 : 362 Kbps
Writing application              : В Кадре.ру
Tagging application              : Yet Another Metadata Injector for FLV - Version 1.2-OA-modified
title                            : Николай Воронов - белая стрекоза любви
author                           : Ванс vanseg Grind
created_at                       : 11 апреля 2008

Video
Format                           : H.263
Codec ID                         : 2
Codec ID/Hint                    : Sorenson
Duration                         : 3mn 28s
Bit rate                         : 257 Kbps
Width                            : 320 pixels
Height                           : 240 pixels
Display aspect ratio             : 4:3
Frame rate mode                  : Constant
Frame rate                       : 25.000 fps
Bit depth                        : 8 bits
Compression mode                 : Lossy
Bits/(Pixel*Frame)               : 0.134
Stream size                      : 6.59 MiB (73%)

Audio
Format                           : MPEG Audio
Format version                   : Version 2
Format profile                   : Layer 3
Mode                             : Joint stereo
Mode extension                   : MS Stereo
Codec ID                         : 2
Codec ID/Hint                    : MP3
Duration                         : 3mn 28s
Bit rate mode                    : Variable
Bit rate                         : 88.6 Kbps
Channel(s)                       : 2 channels
Sampling rate                    : 22.05 KHz
Compression mode                 : Lossy
Stream size                      : 2.34 MiB (26%)
Link to file: Николай Воронов - Белая стрекоза любви.flv - 8.98MB

Re: 1349: FLV files not imported [#7326]

by MiPi » Sun Mar 13, 2011 7:02 am

Thanks KJIAAC. This file does not exactly correspond to FLV format specification in one header value and MM assumes now, it has wrong format. Will be fixed in the next build (1354), I've permitted this variation.

Re: 1349: FLV files not imported [#7326]

by KJIACC » Sun Mar 13, 2011 3:54 am

1353
MM end scanning:
Failed to import 1 files
Show errors:
Error scanning file ... Мартынов - Атака Параллельных Миров.flv - error while reading file info

But this file is played on all players

Code: Select all

General
Complete name                    : F:\Закачки\Фильмы\Документальные\Мартынов - Атака Параллельных Миров.flv
Format                           : Flash Video
File size                        : 16.3 MiB
Duration                         : 10mn 58s
Overall bit rate                 : 208 Kbps
Writing application              : YouTube, Inc.
Tagging application              : YouTube Metadata Injector.

Video
Format                           : H.263
Duration                         : 10mn 58s
Bit rate                         : 208 Kbps
Width                            : 320 pixels
Height                           : 240 pixels
Display aspect ratio             : 4:3
Frame rate mode                  : Constant
Frame rate                       : 15.000 fps
Bits/(Pixel*Frame)               : 0.180
Stream size                      : 16.3 MiB (100%)

Audio
Format                           : MPEG Audio
Format version                   : Version 2
Format profile                   : Layer 3
Duration                         : 10mn 58s
Bit rate mode                    : Variable
Channel(s)                       : 1 channel
Sampling rate                    : 22.05 KHz
Resolution                       : 16 bits

Link to file: http://www.sendspace.com/file/y2r6m8

Re: Certain flv files not imported

by MiPi » Thu Feb 17, 2011 2:42 am

Yes, FLV files are not importable now at all (the old way did not work well and was causing more problems), will be fixed in the mentioned issue 7326.

Re: Certain flv files not imported

by Friedrich » Thu Feb 17, 2011 2:27 am

The bug description reads:
0007326: Some flv files aren't read correctly
But it seems that in fact none are read correctly with 1349. (Meanwhile it had been working with at least most flv files)

Re: Certain flv files not imported

by Lowlander » Wed Feb 16, 2011 12:22 pm

http://www.ventismedia.com/mantis/view.php?id=7326 doesn't show as fixed, so it would be expected that it isn't fixed.

Re: Certain flv files not imported

by stan9980 » Wed Feb 16, 2011 11:24 am

Yes, same here, just to clarify...

It's only flv files that I had imported pre-1349 that I can tag and the tags are preserved.

New flv files won't import and if I try to tag them the tags aren't preserved.

Re: Certain flv files not imported

by Friedrich » Wed Feb 16, 2011 11:00 am

I made a fresh installation. When i try to tag them in the "My Computer" node, the tag values are not preserved.

Top